extratorrent - A Fan Made Alternative Login   |   Register
Important Information
Registrations are open now
-------------------------------------

Please click here to register with Extratorrent2 to recieve latest updates, add bookmarks and to post comments.

Friends
Friends

1) ProxyFix

Extratorrent2 > Categories > Movies > Kanaka (2018) 720p HINDI DUBBED UNTOUCHED WEBHD x264 AAC - 1.8GB - [MovCr Exclusive] torrent


Browse Movies torrents

Kanaka (2018) 720p HINDI DUBBED UNTOUCHED WEBHD x264 AAC - 1.8GB - [MovCr Exclusive] torrent


Download torrent: Download Kanaka (2018) 720p HINDI DUBBED UNTOUCHED WEBHD x264 AAC - 1.8GB - [MovCr Exclusive] torrent Magnet link Bookmark Torrent: Kanaka (2018) 720p HINDI DUBBED UNTOUCHED WEBHD x264 AAC - 1.8GB - [MovCr Exclusive]   Kanaka (2018) 720p HINDI DUBBED UNTOUCHED WEBHD x264 AAC - 1.8GB - [MovCr Exclusive] torrent
Info hash: 9D431205CED436CCB0F5E6FA6E4298DA1044CA9E
Category: Categories > Movies
Trackers:
View all torrent trackers >
Health:
 seeds: 9 ,  leechers: 3 |  Update >
Torrent language: Hindi Hindi
Total Size: 1.9 GB
Files List:
2    View torrent files >
Uploader:
ictv
Torrent added: November 14, 2018, 4:30 am
Tags: Action, Hindi
IMDB: http://www.imdb.com/title/tt7614030
Users rating: ---, not rated. please login to rate.

Download Kanaka (2018) 720p HINDI DUBBED UNTOUCHED WEBHD x264 AAC - 1.8GB - [MovCr Exclusive] torrent



Torrent Description

Our Site http://movcr.cc


Kanaka (2018) 720p HINDI DUBBED UNTOUCHED WEBHD x264 AAC - 1.8GB - [MovCr Exclusive]




http://www.imdb.com/title/tt7614030/




General
Unique ID : 85047610675767021004816397280756733659 (0x3FFB92F25028616135F714E9D2C996DB)
Complete name : Kanaka (2018) 720p UNTOUCHED WEBHD x264 AAC - 1.8GB - [MovCr Exclusive]\www.MovCr.cc - Kanaka (2018) 720p UNTOUCHED WEBHD x264 AAC - 1.8GB - [MovCr Exclusive].mkv
Format : Matroska
Format version : Version 4 / Version 2
File size : 1.86 GiB
Duration : 2 h 8 min
Overall bit rate : 2 060 kb/s
Movie name : www.MovCr.cc
Encoded date : UTC 2018-10-24 15:26:20
Writing application : mkvmerge v26.0.0 ('In The Game') 64-bit
Writing library : libebml v1.3.6 + libmatroska v1.4.9

Video
ID : 1
Format : AVC
Format/Info : Advanced Video Codec
Format profile :
Format settings : CABAC / 1 Ref Frames
Format settings, CABAC : Yes
Format settings, RefFrames : 1 frame
Codec ID : V_MPEG4/ISO/AVC
Duration : 2 h 8 min
Bit rate mode : Constant
Bit rate : 2 000 kb/s
Width : 1 280 pixels
Height : 720 pixels
Display aspect ratio : 16:9
Frame rate mode : Constant
Frame rate : 25.000 FPS
Color space : YUV
Chroma subsampling : 4:2:0
Bit depth : 8 bits
Scan type : Progressive
Bits/(Pixel*Frame) : 0.087
Stream size : 1.80 GiB (97%)
Title : www.MovCr.cc
Default : Yes
Forced : No

Audio
ID : 2
Format : AAC
Format/Info : Advanced Audio Codec
Format profile : LC
Codec ID : A_AAC-2
Duration : 2 h 8 min
Bit rate : 61.4 kb/s
Channel(s) : 2 channels
Channel positions : Front: L R
Sampling rate : 48.0 kHz
Frame rate : 46.875 FPS (1024 SPF)
Compression mode : Lossy
Delay relative to video : -33 ms
Stream size : 56.6 MiB (3%)
Title : www.MovCr.cc
Default : Yes
Forced : No


























Download Kanaka (2018) 720p HINDI DUBBED UNTOUCHED WEBHD x264 AAC - 1.8GB - [MovCr Exclusive] torrent


Related Torrents


Comments   (please login to add your comment!)

super     deni     cro     conan futuro     monkeys     carly rae jepsen emotion side b 2016     the sky     kamasi     the death     overdose     hole     pride     atlanta     naughty america collection pack 3 of 3 gracie glam     the prisoner of azkaban     kayla kayden     powerfuck     cadence pervsonpatrol     windows 7     stunning     beauty and the beast 2012 s02e19     stryker     climax     girl 1982     


Home - Browse Torrents

Made with love by an Extratorrent Fan!