extratorrent - A Fan Made Alternative Login   |   Register
Important Information
Registrations are open now
-------------------------------------

Please click here to register with Extratorrent2 to recieve latest updates, add bookmarks and to post comments.

Friends
Friends

1) ProxyFix

Extratorrent2 > Categories > Movies > The.Time.Team.2018.1080p.WEB-DL.H264.AC3.With.Sample.LLG torrent


Browse Movies torrents

The.Time.Team.2018.1080p.WEB-DL.H264.AC3.With.Sample.LLG torrent


Download torrent: Download The.Time.Team.2018.1080p.WEB-DL.H264.AC3.With.Sample.LLG torrent Magnet link Bookmark Torrent: The.Time.Team.2018.1080p.WEB-DL.H264.AC3.With.Sample.LLG   The.Time.Team.2018.1080p.WEB-DL.H264.AC3.With.Sample.LLG torrent
Info hash: E916CF94842AB26C6C12C64B7E0DCD2FED2B328B
Category: Categories > Movies
Trackers:
View all torrent trackers >
Health:
 seeds: 0 ,  leechers: 1 |  Update >
Torrent language: English English
Total Size: 2.0 GB
Files List:
2    View torrent files >
Uploader:
LifeLongg
Torrent added: November 17, 2018, 4:30 pm
Tags: The, Time, Team, 2018, 1080p, WEB-DL, animation
Users rating: ---, not rated. please login to rate.

Download The.Time.Team.2018.1080p.WEB-DL.H264.AC3.With.Sample.LLG torrent



Torrent Description



******************************Thumbnail:**********************



******************************Screenshots:********************

Screenshot 1

Screenshot 2

Screenshot 3

Screenshot 4

Screenshot 5

Screenshot 6

Screenshot 7

Screenshot 8

Screenshot 9

Screenshot 0

************************************************************

The.Time.Team.2018.1080p.WEB-DL.H264.AC3.With.Sample.LLG.mp4
Format : MPEG-4
Format profile : Base Media
Codec ID : isom (isom/iso2/avc1/mp41)
File size : 2.00 GiB
Duration : 1 h 24 min
Overall bit rate mode : Variable
Overall bit rate : 3 379 kb/s


Video
ID : 1
Format : AVC
Format/Info : Advanced Video Codec
Format profile :
Format settings : CABAC / 1 Ref Frames
Format settings, CABAC : Yes
Format settings, RefFrames : 1 frame
Codec ID : avc1
Codec ID/Info : Advanced Video Coding
Duration : 1 h 24 min
Bit rate mode : Variable
Bit rate : 2 991 kb/s
Maximum bit rate : 9 000 kb/s
Width : 1 916 pixels
Height : 802 pixels
Display aspect ratio : 2.40:1
Frame rate mode : Constant
Frame rate : 24.000 FPS
Color space : YUV
Chroma subsampling : 4:2:0
Bit depth : 8 bits
Scan type : Progressive
Bits/(Pixel*Frame) : 0.081
Stream size : 1.77 GiB (89%)
Language : English

Audio
ID : 2
Format : AC-3
Format/Info : Audio Coding 3
Commercial name : Dolby Digital
Codec ID : ac-3
Duration : 1 h 24 min
Bit rate mode : Constant
Bit rate : 384 kb/s
Channel(s) : 6 channels
Channel layout : L R C LFE Ls Rs
Sampling rate : 48.0 kHz
Frame rate : 31.250 FPS (1536 SPF)
Bit depth : 16 bits
Compression mode : Lossy
Stream size : 233 MiB (11%)
Language : English
Service kind : Complete Main
Default : Yes
Alternate group : 1


**************************************************************


Download The.Time.Team.2018.1080p.WEB-DL.H264.AC3.With.Sample.LLG torrent


Related Torrents


Comments   (please login to add your comment!)

lesbea     s05 hevc     jigsaw 2017 dual     rampage     zombie strippers     supernatural s13e11     clinch     paola mike     fries     the crown s01e02 720p     ben hur 1959     outcast x265     sicario 2     window     melanie hicks summer with my slutty sister     data structure in     porn pros perfectly natural     ben hur 1959 hindi     alkaloid     wrinkle in time     j kenner     feet 2017     masterchef s09e18     4k hd     


Home - Browse Torrents

Made with love by an Extratorrent Fan!