extratorrent - A Fan Made Alternative Login   |   Register
Important Information
Registrations are open now
-------------------------------------

Please click here to register with Extratorrent2 to recieve latest updates, add bookmarks and to post comments.

Friends
Friends

1) ProxyFix

Extratorrent2 > Categories > TV > The.Purge.S01E08.WEB-DL.XviD.B4ND1T69 torrent


Browse TV torrents

The.Purge.S01E08.WEB-DL.XviD.B4ND1T69 torrent


Download torrent: Download The.Purge.S01E08.WEB-DL.XviD.B4ND1T69 torrent Magnet link Bookmark Torrent: The.Purge.S01E08.WEB-DL.XviD.B4ND1T69   The.Purge.S01E08.WEB-DL.XviD.B4ND1T69 torrent
Info hash: D79742645D5FF654E13EF42A0865A4EA72873364
Category: Categories > TV
Trackers:
View all torrent trackers >
Health:
 seeds: 10 ,  leechers: 7 |  Update >
Torrent language: English English
Total Size: 437.2 MB
Files List:
4    View torrent files >
Uploader:
B4ND1T69
Torrent added: November 18, 2018, 4:30 pm
Tags: Horror, Action, Crime, Drama, Sci-Fi
Users rating: ---, not rated. please login to rate.

Download The.Purge.S01E08.WEB-DL.XviD.B4ND1T69 torrent



Torrent Description

The.Purge.S01E08.WEB-DL.XviD.B4ND1T69



Creator: James DeMonaco
Stars: Gabriel Chavarria, Jessica Garza, Hannah Emily Anderson

Plot/Story:
Giving Time is Here
Lilia grapples with rejection; Miguel and Penelope seek the safety of the Cantina.

General
Complete name : The.Purge.S01E08.WEB-DL.XviD.B4ND1T69.avi
Format : AVI
Format/Info : Audio Video Interleave
File size : 437 MiB
Duration : 42 min 17 s
Overall bit rate : 1 445 kb/s
Subtitles : Yes...Included(HI)

Video
ID : 0
Format : MPEG-4 Visual
Format profile : Advanced
Format settings, BVOP : 2
Format settings, QPel : Yes
Format settings, GMC : No warppoints
Format settings, Matrix : Default (H.263)
Codec ID : XVID
Codec ID/Hint : XviD
Duration : 42 min 17 s
Bit rate : 1 304 kb/s
Width : 640 pixels
Height : 360 pixels
Display aspect ratio : 16:9
Frame rate : 23.976 (24000/1001) FPS
Original frame rate : 23.976 (23976/1000) FPS
Color space : YUV
Chroma subsampling : 4:2:0
Bit depth : 8 bits
Scan type : Progressive
Compression mode : Lossy
Bits/(Pixel*Frame) : 0.236
Stream size : 394 MiB (90%)
Writing library : XviD 64

Audio
ID : 1
Format : MPEG Audio
Format version : Version 1
Format profile : Layer 3
Codec ID : 55
Codec ID/Hint : MP3
Duration : 42 min 17 s
Source duration : 42 min 17 s
Bit rate mode : Constant
Bit rate : 128 kb/s
Channel(s) : 2 channels
Sampling rate : 48.0 kHz
Compression mode : Lossy
Stream size : 38.7 MiB (9%)
Alignment : Split accross interleaves
Interleave, duration : 24 ms (0.58 video frame)

Screenshots:







Please Seed For As Long As Possible
Or At Least 1:1 Ratio...Thanks
Enjoy Peeps


Download The.Purge.S01E08.WEB-DL.XviD.B4ND1T69 torrent


Related Torrents


Comments   (please login to add your comment!)

reigns     cracked     taylor swift 2016     badhaai ho     1080p hindi 1990     first reformed     krissy     haruka sanada     stepmomlessons lilu4u nesty     eva popperz legalporno     cliparts     blacked peta jensen big boob secretary does her black boss     andrea     melba     gvg 361     1080p avc     jigsaw 8     alexis fawx 20     asunsoft rar     im a celebrity     jean fucking     max deeds xxx     terracotta     original     


Home - Browse Torrents

Made with love by an Extratorrent Fan!